<?xml version="1.0" standalone="no"?>
<!DOCTYPE svg PUBLIC "-//W3C//DTD SVG 1.1//EN" "http://www.w3.org/Graphics/SVG/1.1/DTD/svg11.dtd" >
<svg xmlns="http://www.w3.org/2000/svg" xmlns:xlink="http://www.w3.org/1999/xlink" version="1.1">
<metadata>
Created by FontForge 20161116 at Wed Feb 29 18:13:36 2012
 By Jimmy Wärting
Copyright qrelly 2011
</metadata>
<defs>
<font id="Minecraft" horiz-adv-x="768" >
  <font-face 
    font-family="Minecraft"
    font-weight="400"
    font-stretch="normal"
    units-per-em="1024"
    panose-1="0 0 4 0 0 0 0 0 0 0"
    ascent="896"
    descent="-128"
    x-height="640"
    cap-height="896"
    bbox="0 -128 896 896"
    underline-thickness="51"
    underline-position="77"
    unicode-range="U+0020-201D"
  />
<missing-glyph horiz-adv-x="0" 
d="M448 127v142h-143v-142h143zM590 293v143h-285v-143h285zM448 459v143h-143v-143h143zM590 626v141h-142q-60 0 -101 -41q-42 -42 -42 -100h285zM0 0v896h896v-896h-896z" />
    <glyph glyph-name=".notdef" horiz-adv-x="0" 
d="M448 127v142h-143v-142h143zM590 293v143h-285v-143h285zM448 459v143h-143v-143h143zM590 626v141h-142q-60 0 -101 -41q-42 -42 -42 -100h285zM0 0v896h896v-896h-896z" />
    <glyph glyph-name="glyph1" horiz-adv-x="0" 
 />
    <glyph glyph-name="glyph2" horiz-adv-x="256" 
 />
    <glyph glyph-name="space" unicode=" " horiz-adv-x="384" 
 />
    <glyph glyph-name="exclam" unicode="!" horiz-adv-x="256" 
d="M0 0v128h128v-128h-128zM0 256v640h128v-640h-128z" />
    <glyph glyph-name="quotedbl" unicode="&#x22;" horiz-adv-x="512" 
d="M0 512v384h128v-384h-128zM256 512v384h128v-384h-128z" />
    <glyph glyph-name="numbersign" unicode="#" 
d="M384 384v128h-128v-128h128zM128 0v256h-128v128h128v128h-128v128h128v256h128v-256h128v256h128v-256h128v-128h-128v-128h128v-128h-128v-256h-128v256h-128v-256h-128z" />
    <glyph glyph-name="dollar" unicode="$" 
d="M256 0v128h-256v128h512v-128h-128v-128h-128zM512 256v128h128v-128h-128zM128 384v128h384v-128h-384zM0 512v128h128v-128h-128zM128 640v128h128v128h128v-128h256v-128h-512z" />
    <glyph glyph-name="percent" unicode="%" 
d="M0 0v128h128v-128h-128zM512 0v256h128v-256h-128zM128 128v256h128v-256h-128zM256 384v128h128v-128h-128zM384 512v256h128v-256h-128zM0 640v256h128v-256h-128zM512 768v128h128v-128h-128z" />
    <glyph glyph-name="ampersand" unicode="&#x26;" 
d="M128 0v128h256v-128h-256zM512 0v128h128v-128h-128zM0 128v256h128v-256h-128zM512 384v128h128v-128h-128zM384 128v128h-128v128h-128v128h128v128h128v-256h128v-256h-128zM128 640v128h128v-128h-128zM384 640v128h128v-128h-128zM256 768v128h128v-128h-128z" />
    <glyph glyph-name="quotesingle" unicode="'" horiz-adv-x="256" 
d="M0 512v384h128v-384h-128z" />
    <glyph glyph-name="parenleft" unicode="(" horiz-adv-x="640" 
d="M256 0v128h256v-128h-256zM128 128v128h128v-128h-128zM0 256v384h128v-384h-128zM128 640v128h128v-128h-128zM256 768v128h256v-128h-256z" />
    <glyph glyph-name="parenright" unicode=")" horiz-adv-x="640" 
d="M0 0v128h256v-128h-256zM256 128v128h128v-128h-128zM384 256v384h128v-384h-128zM256 640v128h128v-128h-128zM0 768v128h256v-128h-256z" />
    <glyph glyph-name="asterisk" unicode="*" horiz-adv-x="640" 
d="M128 512v128h128v-128h-128zM384 512v128h128v-128h-128zM256 640v128h128v-128h-128zM128 768v128h128v-128h-128zM384 768v128h128v-128h-128z" />
    <glyph glyph-name="plus" unicode="+" 
d="M256 128v256h-256v128h256v256h128v-256h256v-128h-256v-256h-128z" />
    <glyph glyph-name="comma" unicode="," horiz-adv-x="384" 
d="M0 -128v128h128v-128h-128zM128 0v128h128v-128h-128z" />
    <glyph glyph-name="hyphen" unicode="-" 
d="M0 384v128h640v-128h-640z" />
    <glyph glyph-name="period" unicode="." horiz-adv-x="256" 
d="M0 0v128h128v-128h-128z" />
    <glyph glyph-name="slash" unicode="/" 
d="M0 0v128h128v-128h-128zM128 128v256h128v-256h-128zM256 384v128h128v-128h-128zM384 512v256h128v-256h-128zM512 768v128h128v-128h-128z" />
    <glyph glyph-name="zero" unicode="0" 
d="M128 0v128h384v-128h-384zM256 384v128h128v-128h-128zM0 128v640h128v-384h128v-128h-128v-128h-128zM512 128v384h-128v128h128v128h128v-640h-128zM128 768v128h384v-128h-384z" />
    <glyph glyph-name="one" unicode="1" 
d="M0 0v128h256v512h-128v128h128v128h128v-768h256v-128h-640z" />
    <glyph glyph-name="two" unicode="2" 
d="M0 0v256h128v-128h384v128h128v-256h-640zM128 256v128h128v-128h-128zM256 384v128h256v-128h-256zM0 640v128h128v-128h-128zM512 512v256h128v-256h-128zM128 768v128h384v-128h-384z" />
    <glyph glyph-name="three" unicode="3" 
d="M128 0v128h384v-128h-384zM0 128v128h128v-128h-128zM512 128v256h128v-256h-128zM256 384v128h256v-128h-256zM0 640v128h128v-128h-128zM512 512v256h128v-256h-128zM128 768v128h384v-128h-384z" />
    <glyph glyph-name="four" unicode="4" 
d="M128 512v128h128v-128h-128zM256 640v128h128v-128h-128zM512 0v256h-512v256h128v-128h384v384h-128v128h256v-896h-128z" />
    <glyph glyph-name="five" unicode="5" 
d="M128 0v128h384v-128h-384zM0 128v128h128v-128h-128zM512 128v384h128v-384h-128zM0 512v384h640v-128h-512v-128h384v-128h-512z" />
    <glyph glyph-name="six" unicode="6" 
d="M128 0v128h384v-128h-384zM512 128v256h128v-256h-128zM0 128v512h128v-128h384v-128h-384v-256h-128zM128 640v128h128v-128h-128zM256 768v128h256v-128h-256z" />
    <glyph glyph-name="seven" unicode="7" 
d="M256 0v384h128v-384h-128zM384 384v128h128v-128h-128zM512 512v256h-384v-128h-128v256h640v-384h-128z" />
    <glyph glyph-name="eight" unicode="8" 
d="M128 0v128h384v-128h-384zM0 128v256h128v-256h-128zM512 128v256h128v-256h-128zM128 384v128h384v-128h-384zM0 512v256h128v-256h-128zM512 512v256h128v-256h-128zM128 768v128h384v-128h-384z" />
    <glyph glyph-name="nine" unicode="9" 
d="M128 0v128h256v-128h-256zM384 128v128h128v-128h-128zM0 512v256h128v-256h-128zM512 256v128h-384v128h384v256h128v-512h-128zM128 768v128h384v-128h-384z" />
    <glyph glyph-name="colon" unicode=":" horiz-adv-x="256" 
d="M0 128v256h128v-256h-128zM0 512v256h128v-256h-128z" />
    <glyph glyph-name="semicolon" unicode=";" horiz-adv-x="512" 
d="M128 128v128h128v-128h-128zM256 256v128h128v-128h-128zM256 512v256h128v-256h-128z" />
    <glyph glyph-name="less" unicode="&#x3c;" horiz-adv-x="640" 
d="M384 0v128h128v-128h-128zM256 128v128h128v-128h-128zM128 256v128h128v-128h-128zM0 384v128h128v-128h-128zM128 512v128h128v-128h-128zM256 640v128h128v-128h-128zM384 768v128h128v-128h-128z" />
    <glyph glyph-name="equal" unicode="=" 
d="M0 128v128h640v-128h-640zM0 512v128h640v-128h-640z" />
    <glyph glyph-name="greater" unicode="&#x3e;" horiz-adv-x="640" 
d="M0 0v128h128v-128h-128zM128 128v128h128v-128h-128zM256 256v128h128v-128h-128zM384 384v128h128v-128h-128zM256 512v128h128v-128h-128zM128 640v128h128v-128h-128zM0 768v128h128v-128h-128z" />
    <glyph glyph-name="question" unicode="?" 
d="M256 0v128h128v-128h-128zM256 256v128h128v-128h-128zM384 384v128h128v-128h-128zM0 640v128h128v-128h-128zM512 512v256h128v-256h-128zM128 768v128h384v-128h-384z" />
    <glyph glyph-name="at" unicode="@" horiz-adv-x="896" 
d="M128 0v128h512v-128h-512zM0 128v640h128v-640h-128zM256 256v384h256v-256h128v384h128v-512h-512zM128 768v128h512v-128h-512z" />
    <glyph glyph-name="A" unicode="A" 
d="M0 0v768h128v-128h384v128h128v-768h-128v512h-384v-512h-128zM128 768v128h384v-128h-384z" />
    <glyph glyph-name="B" unicode="B" 
d="M512 128v384h128v-384h-128zM512 640v128h128v-128h-128zM0 0v896h512v-128h-384v-128h384v-128h-384v-384h384v-128h-512z" />
    <glyph glyph-name="C" unicode="C" 
d="M128 0v128h384v-128h-384zM512 128v128h128v-128h-128zM0 128v640h128v-640h-128zM512 640v128h128v-128h-128zM128 768v128h384v-128h-384z" />
    <glyph glyph-name="D" unicode="D" 
d="M512 128v640h128v-640h-128zM0 0v896h512v-128h-384v-640h384v-128h-512z" />
    <glyph glyph-name="E" unicode="E" 
d="M0 0v896h640v-128h-512v-128h256v-128h-256v-384h512v-128h-640z" />
    <glyph glyph-name="F" unicode="F" 
d="M0 0v896h640v-128h-512v-128h256v-128h-256v-512h-128z" />
    <glyph glyph-name="G" unicode="G" 
d="M128 0v128h384v-128h-384zM512 128v384h-128v128h256v-512h-128zM0 128v640h128v-640h-128zM128 768v128h512v-128h-512z" />
    <glyph glyph-name="H" unicode="H" 
d="M0 0v896h128v-256h384v256h128v-896h-128v512h-384v-512h-128z" />
    <glyph glyph-name="I" unicode="I" horiz-adv-x="512" 
d="M0 0v128h128v640h-128v128h384v-128h-128v-640h128v-128h-384z" />
    <glyph glyph-name="J" unicode="J" 
d="M128 0v128h384v-128h-384zM0 128v128h128v-128h-128zM512 128v768h128v-768h-128z" />
    <glyph glyph-name="K" unicode="K" 
d="M512 0v384h128v-384h-128zM384 384v128h128v-128h-128zM384 640v128h128v-128h-128zM0 0v896h128v-256h256v-128h-256v-512h-128zM512 768v128h128v-128h-128z" />
    <glyph glyph-name="L" unicode="L" 
d="M0 0v896h128v-768h512v-128h-640z" />
    <glyph glyph-name="M" unicode="M" 
d="M256 512v128h128v-128h-128zM0 0v896h128v-128h128v-128h-128v-640h-128zM512 0v640h-128v128h128v128h128v-896h-128z" />
    <glyph glyph-name="N" unicode="N" 
d="M256 512v128h128v-128h-128zM0 0v896h128v-128h128v-128h-128v-640h-128zM512 0v384h-128v128h128v384h128v-896h-128z" />
    <glyph glyph-name="O" unicode="O" 
d="M128 0v128h384v-128h-384zM0 128v640h128v-640h-128zM512 128v640h128v-640h-128zM128 768v128h384v-128h-384z" />
    <glyph glyph-name="P" unicode="P" 
d="M512 640v128h128v-128h-128zM0 0v896h512v-128h-384v-128h384v-128h-384v-512h-128z" />
    <glyph glyph-name="Q" unicode="Q" 
d="M128 0v128h256v-128h-256zM512 0v128h128v-128h-128zM384 128v128h128v-128h-128zM0 128v640h128v-640h-128zM512 256v512h128v-512h-128zM128 768v128h384v-128h-384z" />
    <glyph glyph-name="R" unicode="R" 
d="M512 0v512h128v-512h-128zM512 640v128h128v-128h-128zM0 0v896h512v-128h-384v-128h384v-128h-384v-512h-128z" />
    <glyph glyph-name="S" unicode="S" 
d="M128 0v128h384v-128h-384zM0 128v128h128v-128h-128zM512 128v384h128v-384h-128zM128 512v128h384v-128h-384zM0 640v128h128v-128h-128zM128 768v128h512v-128h-512z" />
    <glyph glyph-name="T" unicode="T" 
d="M256 0v768h-256v128h640v-128h-256v-768h-128z" />
    <glyph glyph-name="U" unicode="U" 
d="M128 0v128h384v-128h-384zM0 128v768h128v-768h-128zM512 128v768h128v-768h-128z" />
    <glyph glyph-name="V" unicode="V" 
d="M256 0v128h128v-128h-128zM128 128v256h128v-256h-128zM384 128v256h128v-256h-128zM0 384v512h128v-512h-128zM512 384v512h128v-512h-128z" />
    <glyph glyph-name="W" unicode="W" 
d="M256 256v128h128v-128h-128zM0 0v896h128v-640h128v-128h-128v-128h-128zM512 0v128h-128v128h128v640h128v-896h-128z" />
    <glyph glyph-name="X" unicode="X" 
d="M0 0v384h128v-384h-128zM512 0v384h128v-384h-128zM128 384v128h128v-128h-128zM384 384v128h128v-128h-128zM256 512v128h128v-128h-128zM128 640v128h128v-128h-128zM384 640v128h128v-128h-128zM0 768v128h128v-128h-128zM512 768v128h128v-128h-128z" />
    <glyph glyph-name="Y" unicode="Y" 
d="M256 0v640h128v-640h-128zM128 640v128h128v-128h-128zM384 640v128h128v-128h-128zM0 768v128h128v-128h-128zM512 768v128h128v-128h-128z" />
    <glyph glyph-name="Z" unicode="Z" 
d="M0 0v256h128v-128h512v-128h-640zM128 256v128h128v-128h-128zM256 384v128h128v-128h-128zM384 512v128h128v-128h-128zM512 640v128h-512v128h640v-256h-128z" />
    <glyph glyph-name="bracketleft" unicode="[" horiz-adv-x="640" 
d="M128 0v896h384v-128h-256v-640h256v-128h-384z" />
    <glyph glyph-name="backslash" unicode="\" 
d="M512 0v128h128v-128h-128zM384 128v256h128v-256h-128zM256 384v128h128v-128h-128zM128 512v256h128v-256h-128zM0 768v128h128v-128h-128z" />
    <glyph glyph-name="bracketright" unicode="]" horiz-adv-x="640" 
d="M128 0v128h256v640h-256v128h384v-896h-384z" />
    <glyph glyph-name="asciicircum" unicode="^" 
d="M0 512v128h128v-128h-128zM512 512v128h128v-128h-128zM128 640v128h128v-128h-128zM384 640v128h128v-128h-128zM256 768v128h128v-128h-128z" />
    <glyph glyph-name="underscore" unicode="_" 
d="M0 0v128h640v-128h-640z" />
    <glyph glyph-name="grave" unicode="`" horiz-adv-x="384" 
d="M128 512v128h128v-128h-128zM0 640v256h128v-256h-128z" />
    <glyph glyph-name="a" unicode="a" 
d="M0 128v128h128v-128h-128zM128 0v128h384v128h-384v128h384v128h128v-512h-512zM128 512v128h384v-128h-384z" />
    <glyph glyph-name="b" unicode="b" 
d="M512 128v384h128v-384h-128zM256 512v128h256v-128h-256zM0 0v896h128v-384h128v-128h-128v-256h384v-128h-512z" />
    <glyph glyph-name="c" unicode="c" 
d="M128 0v128h384v-128h-384zM512 128v128h128v-128h-128zM0 128v384h128v-384h-128zM512 384v128h128v-128h-128zM128 512v128h384v-128h-384z" />
    <glyph glyph-name="d" unicode="d" 
d="M0 128v384h128v-384h-128zM128 512v128h256v-128h-256zM128 0v128h384v256h-128v128h128v384h128v-896h-512z" />
    <glyph glyph-name="e" unicode="e" 
d="M128 0v128h512v-128h-512zM0 128v384h128v-128h384v128h128v-256h-512v-128h-128zM128 512v128h384v-128h-384z" />
    <glyph glyph-name="f" unicode="f" horiz-adv-x="640" 
d="M128 0v512h-128v128h128v128h128v-128h256v-128h-256v-512h-128zM256 768v128h256v-128h-256z" />
    <glyph glyph-name="g" unicode="g" 
d="M0 -128v128h512v-128h-512zM0 256v256h128v-256h-128zM512 0v128h-384v128h384v256h-384v128h512v-640h-128z" />
    <glyph glyph-name="h" unicode="h" 
d="M512 0v512h128v-512h-128zM256 512v128h256v-128h-256zM0 0v896h128v-384h128v-128h-128v-384h-128z" />
    <glyph glyph-name="i" unicode="i" horiz-adv-x="256" 
d="M0 0v640h128v-640h-128zM0 768v128h128v-128h-128z" />
    <glyph glyph-name="j" unicode="j" 
d="M128 -128v128h384v-128h-384zM0 0v128h128v-128h-128zM512 0v640h128v-640h-128zM512 768v128h128v-128h-128z" />
    <glyph glyph-name="k" unicode="k" horiz-adv-x="640" 
d="M384 0v128h128v-128h-128zM256 128v128h128v-128h-128zM256 384v128h128v-128h-128zM384 512v128h128v-128h-128zM0 0v896h128v-512h128v-128h-128v-256h-128z" />
    <glyph glyph-name="l" unicode="l" horiz-adv-x="384" 
d="M128 0v128h128v-128h-128zM0 128v768h128v-768h-128z" />
    <glyph glyph-name="m" unicode="m" 
d="M256 256v256h128v-256h-128zM512 0v512h128v-512h-128zM0 0v640h256v-128h-128v-512h-128zM384 512v128h128v-128h-128z" />
    <glyph glyph-name="n" unicode="n" 
d="M512 0v512h128v-512h-128zM0 0v640h512v-128h-384v-512h-128z" />
    <glyph glyph-name="o" unicode="o" 
d="M128 0v128h384v-128h-384zM0 128v384h128v-384h-128zM512 128v384h128v-384h-128zM128 512v128h384v-128h-384z" />
    <glyph glyph-name="p" unicode="p" 
d="M512 256v256h128v-256h-128zM0 -128v768h128v-128h128v-128h-128v-128h384v-128h-384v-256h-128zM256 512v128h256v-128h-256z" />
    <glyph glyph-name="q" unicode="q" 
d="M0 256v256h128v-256h-128zM128 512v128h256v-128h-256zM512 -128v256h-384v128h384v128h-128v128h128v128h128v-768h-128z" />
    <glyph glyph-name="r" unicode="r" 
d="M512 384v128h128v-128h-128zM0 0v640h128v-128h128v-128h-128v-384h-128zM256 512v128h256v-128h-256z" />
    <glyph glyph-name="s" unicode="s" 
d="M0 0v128h512v-128h-512zM512 128v128h128v-128h-128zM128 256v128h384v-128h-384zM0 384v128h128v-128h-128zM128 512v128h512v-128h-512z" />
    <glyph glyph-name="t" unicode="t" horiz-adv-x="512" 
d="M256 0v128h128v-128h-128zM128 128v384h-128v128h128v256h128v-256h128v-128h-128v-384h-128z" />
    <glyph glyph-name="u" unicode="u" 
d="M0 128v512h128v-512h-128zM128 0v128h384v512h128v-640h-512z" />
    <glyph glyph-name="v" unicode="v" 
d="M256 0v128h128v-128h-128zM128 128v128h128v-128h-128zM384 128v128h128v-128h-128zM0 256v384h128v-384h-128zM512 256v384h128v-384h-128z" />
    <glyph glyph-name="w" unicode="w" 
d="M0 128v512h128v-512h-128zM128 0v128h128v256h128v-256h128v512h128v-640h-512z" />
    <glyph glyph-name="x" unicode="x" 
d="M0 0v128h128v-128h-128zM512 0v128h128v-128h-128zM128 128v128h128v-128h-128zM384 128v128h128v-128h-128zM256 256v128h128v-128h-128zM128 384v128h128v-128h-128zM384 384v128h128v-128h-128zM0 512v128h128v-128h-128zM512 512v128h128v-128h-128z" />
    <glyph glyph-name="y" unicode="y" 
d="M0 -128v128h512v-128h-512zM0 256v384h128v-384h-128zM512 0v128h-384v128h384v384h128v-640h-128z" />
    <glyph glyph-name="z" unicode="z" 
d="M0 0v128h128v128h128v-128h384v-128h-640zM256 256v128h128v-128h-128zM384 384v128h-384v128h640v-128h-128v-128h-128z" />
    <glyph glyph-name="braceleft" unicode="{" horiz-adv-x="640" 
d="M256 0v128h256v-128h-256zM128 128v256h128v-256h-128zM0 384v128h128v-128h-128zM128 512v256h128v-256h-128zM256 768v128h256v-128h-256z" />
    <glyph glyph-name="bar" unicode="|" horiz-adv-x="256" 
d="M0 0v896h128v-896h-128z" />
    <glyph glyph-name="braceright" unicode="}" horiz-adv-x="640" 
d="M0 0v128h256v-128h-256zM256 128v256h128v-256h-128zM384 384v128h128v-128h-128zM256 512v256h128v-256h-128zM0 768v128h256v-128h-256z" />
    <glyph glyph-name="asciitilde" unicode="~" horiz-adv-x="896" 
d="M0 640v128h128v-128h-128zM384 640v128h256v-128h-256zM128 768v128h256v-128h-256zM640 768v128h128v-128h-128z" />
    <glyph glyph-name="uni0410" unicode="&#x410;" 
d="M0 0v768h128v-128h384v128h128v-768h-128v512h-384v-512h-128zM128 768v128h384v-128h-384z" />
    <glyph glyph-name="uni0411" unicode="&#x411;" 
d="M512 128v384h128v-384h-128zM0 0v896h640v-128h-512v-128h384v-128h-384v-384h384v-128h-512z" />
    <glyph glyph-name="uni0412" unicode="&#x412;" 
d="M512 128v384h128v-384h-128zM512 640v128h128v-128h-128zM0 0v896h512v-128h-384v-128h384v-128h-384v-384h384v-128h-512z" />
    <glyph glyph-name="uni0413" unicode="&#x413;" 
d="M0 0v896h640v-128h-512v-768h-128z" />
    <glyph glyph-name="uni0414" unicode="&#x414;" 
d="M0 -128v256h128v640h128v-640h128v640h-128v128h256v-768h128v-256h-128v128h-384v-128h-128z" />
    <glyph glyph-name="uni0415" unicode="&#x415;" 
d="M0 0v896h640v-128h-512v-128h256v-128h-256v-384h512v-128h-640z" />
    <glyph glyph-name="uni0416" unicode="&#x416;" 
d="M0 0v512h128v-512h-128zM512 0v512h128v-512h-128zM0 640v256h128v-256h-128zM256 0v512h-128v128h128v256h128v-256h128v-128h-128v-512h-128zM512 640v256h128v-256h-128z" />
    <glyph glyph-name="uni0417" unicode="&#x417;" 
d="M128 0v128h384v-128h-384zM0 128v128h128v-128h-128zM512 128v384h128v-384h-128zM256 512v128h256v-128h-256zM0 640v128h128v-128h-128zM512 640v128h128v-128h-128zM128 768v128h384v-128h-384z" />
    <glyph glyph-name="uni0418" unicode="&#x418;" 
d="M256 256v128h128v-128h-128zM0 0v896h128v-640h128v-128h-128v-128h-128zM512 0v384h-128v128h128v384h128v-896h-128z" />
    <glyph glyph-name="uni0419" unicode="&#x419;" 
d="M256 256v128h128v-128h-128zM0 0v896h128v-640h128v-128h-128v-128h-128zM256 768v128h128v-128h-128zM512 0v384h-128v128h128v384h128v-896h-128z" />
    <glyph glyph-name="uni041A" unicode="&#x41a;" 
d="M512 0v384h128v-384h-128zM384 384v128h128v-128h-128zM384 640v128h128v-128h-128zM0 0v896h128v-256h256v-128h-256v-512h-128zM512 768v128h128v-128h-128z" />
    <glyph glyph-name="uni041B" unicode="&#x41b;" 
d="M0 0v640h128v-640h-128zM128 640v128h128v-128h-128zM512 0v768h-256v128h384v-896h-128z" />
    <glyph glyph-name="uni041C" unicode="&#x41c;" 
d="M256 512v128h128v-128h-128zM0 0v896h128v-128h128v-128h-128v-640h-128zM512 0v640h-128v128h128v128h128v-896h-128z" />
    <glyph glyph-name="uni041D" unicode="&#x41d;" 
d="M0 0v896h128v-256h384v256h128v-896h-128v512h-384v-512h-128z" />
    <glyph glyph-name="uni041E" unicode="&#x41e;" 
d="M128 0v128h384v-128h-384zM0 128v640h128v-640h-128zM512 128v640h128v-640h-128zM128 768v128h384v-128h-384z" />
    <glyph glyph-name="uni041F" unicode="&#x41f;" 
d="M0 0v896h640v-896h-128v768h-384v-768h-128z" />
    <glyph glyph-name="uni0420" unicode="&#x420;" 
d="M512 640v128h128v-128h-128zM0 0v896h512v-128h-384v-128h384v-128h-384v-512h-128z" />
    <glyph glyph-name="uni0421" unicode="&#x421;" 
d="M128 0v128h384v-128h-384zM512 128v128h128v-128h-128zM0 128v640h128v-640h-128zM512 640v128h128v-128h-128zM128 768v128h384v-128h-384z" />
    <glyph glyph-name="uni0422" unicode="&#x422;" 
d="M256 0v768h-256v128h640v-128h-256v-768h-128z" />
    <glyph glyph-name="uni0423" unicode="&#x423;" 
d="M128 0v128h384v-128h-384zM0 128v128h128v-128h-128zM0 640v256h128v-256h-128zM512 128v384h-384v128h384v256h128v-768h-128z" />
    <glyph glyph-name="uni0424" unicode="&#x424;" 
d="M0 512v256h128v-256h-128zM512 512v256h128v-256h-128zM256 0v384h-128v128h128v256h-128v128h384v-128h-128v-256h128v-128h-128v-384h-128z" />
    <glyph glyph-name="uni0425" unicode="&#x425;" 
d="M0 0v384h128v-384h-128zM512 0v384h128v-384h-128zM128 384v128h128v-128h-128zM384 384v128h128v-128h-128zM256 512v128h128v-128h-128zM128 640v128h128v-128h-128zM384 640v128h128v-128h-128zM0 768v128h128v-128h-128zM512 768v128h128v-128h-128z" />
    <glyph glyph-name="uni0426" unicode="&#x426;" horiz-adv-x="896" 
d="M640 -128v128h-640v896h128v-768h384v768h128v-768h128v-256h-128z" />
    <glyph glyph-name="uni0427" unicode="&#x427;" 
d="M0 640v256h128v-256h-128zM512 0v512h-384v128h384v256h128v-896h-128z" />
    <glyph glyph-name="uni0428" unicode="&#x428;" 
d="M0 0v896h128v-768h128v768h128v-768h128v768h128v-896h-640z" />
    <glyph glyph-name="uni0429" unicode="&#x429;" horiz-adv-x="896" 
d="M640 -128v128h-640v896h128v-768h128v768h128v-768h128v768h128v-768h128v-256h-128z" />
    <glyph glyph-name="uni042A" unicode="&#x42a;" horiz-adv-x="896" 
d="M640 128v384h128v-384h-128zM128 0v768h-128v128h256v-256h384v-128h-384v-384h384v-128h-512z" />
    <glyph glyph-name="uni042B" unicode="&#x42b;" horiz-adv-x="1024" 
d="M512 128v384h128v-384h-128zM0 0v896h128v-256h384v-128h-384v-384h384v-128h-512zM768 0v896h128v-896h-128z" />
    <glyph glyph-name="uni042C" unicode="&#x42c;" 
d="M512 128v384h128v-384h-128zM0 0v896h128v-256h384v-128h-384v-384h384v-128h-512z" />
    <glyph glyph-name="uni042D" unicode="&#x42d;" 
d="M128 0v128h384v-128h-384zM0 128v128h128v-128h-128zM0 640v128h128v-128h-128zM512 128v384h-256v128h256v128h128v-640h-128zM128 768v128h384v-128h-384z" />
    <glyph glyph-name="uni042E" unicode="&#x42e;" horiz-adv-x="896" 
d="M384 0v128h256v-128h-256zM640 128v640h128v-640h-128zM0 0v896h128v-256h128v128h128v-640h-128v384h-128v-512h-128zM384 768v128h256v-128h-256z" />
    <glyph glyph-name="uni042F" unicode="&#x42f;" 
d="M0 0v512h128v-512h-128zM0 640v128h128v-128h-128zM512 0v512h-384v128h384v128h-384v128h512v-896h-128z" />
    <glyph glyph-name="uni0430" unicode="&#x430;" 
d="M0 128v128h128v-128h-128zM128 0v128h384v128h-384v128h384v128h128v-512h-512zM128 512v128h384v-128h-384z" />
    <glyph glyph-name="uni0431" unicode="&#x431;" 
d="M128 0v128h384v-128h-384zM512 128v384h128v-384h-128zM0 128v640h128v-128h384v-128h-384v-384h-128zM128 768v128h384v-128h-384z" />
    <glyph glyph-name="uni0432" unicode="&#x432;" 
d="M512 128v128h128v-128h-128zM512 384v128h128v-128h-128zM0 0v640h512v-128h-384v-128h384v-128h-384v-128h384v-128h-512z" />
    <glyph glyph-name="uni0433" unicode="&#x433;" 
d="M0 0v640h640v-128h-512v-512h-128z" />
    <glyph glyph-name="uni0434" unicode="&#x434;" 
d="M0 -128v256h128v384h128v-384h128v384h-128v128h256v-512h128v-256h-128v128h-384v-128h-128z" />
    <glyph glyph-name="uni0435" unicode="&#x435;" 
d="M128 0v128h512v-128h-512zM0 128v384h128v-128h384v128h128v-256h-512v-128h-128zM128 512v128h384v-128h-384z" />
    <glyph glyph-name="uni0436" unicode="&#x436;" 
d="M0 0v256h128v-256h-128zM512 0v256h128v-256h-128zM0 384v256h128v-256h-128zM256 0v256h-128v128h128v256h128v-256h128v-128h-128v-256h-128zM512 384v256h128v-256h-128z" />
    <glyph glyph-name="uni0437" unicode="&#x437;" 
d="M0 0v128h512v-128h-512zM512 128v128h128v-128h-128zM128 256v128h384v-128h-384zM512 384v128h128v-128h-128zM0 512v128h512v-128h-512z" />
    <glyph glyph-name="uni0438" unicode="&#x438;" 
d="M0 128v512h128v-512h-128zM128 0v128h384v512h128v-640h-512z" />
    <glyph glyph-name="uni0439" unicode="&#x439;" 
d="M0 128v512h128v-512h-128zM128 0v128h384v512h128v-640h-512zM256 640v128h128v-128h-128z" />
    <glyph glyph-name="uni043A" unicode="&#x43a;" 
d="M512 0v128h128v-128h-128zM384 128v128h128v-128h-128zM384 384v128h128v-128h-128zM0 0v640h128v-256h256v-128h-256v-256h-128zM512 512v128h128v-128h-128z" />
    <glyph glyph-name="uni043B" unicode="&#x43b;" 
d="M0 0v384h128v-384h-128zM128 384v128h128v-128h-128zM512 0v512h-256v128h384v-640h-128z" />
    <glyph glyph-name="uni043C" unicode="&#x43c;" 
d="M256 256v128h128v-128h-128zM0 0v640h128v-128h128v-128h-128v-384h-128zM512 0v384h-128v128h128v128h128v-640h-128z" />
    <glyph glyph-name="uni043D" unicode="&#x43d;" 
d="M0 0v640h128v-256h384v256h128v-640h-128v256h-384v-256h-128z" />
    <glyph glyph-name="uni043E" unicode="&#x43e;" 
d="M128 0v128h384v-128h-384zM0 128v384h128v-384h-128zM512 128v384h128v-384h-128zM128 512v128h384v-128h-384z" />
    <glyph glyph-name="uni043F" unicode="&#x43f;" 
d="M0 0v640h640v-640h-128v512h-384v-512h-128z" />
    <glyph glyph-name="uni0440" unicode="&#x440;" 
d="M512 128v384h128v-384h-128zM0 -128v768h512v-128h-384v-384h384v-128h-384v-128h-128z" />
    <glyph glyph-name="uni0441" unicode="&#x441;" 
d="M128 0v128h384v-128h-384zM512 128v128h128v-128h-128zM0 128v384h128v-384h-128zM512 384v128h128v-128h-128zM128 512v128h384v-128h-384z" />
    <glyph glyph-name="uni0442" unicode="&#x442;" 
d="M256 0v512h-256v128h640v-128h-256v-512h-128z" />
    <glyph glyph-name="uni0443" unicode="&#x443;" 
d="M0 -128v128h512v-128h-512zM0 256v384h128v-384h-128zM512 0v128h-384v128h384v384h128v-640h-128z" />
    <glyph glyph-name="uni0444" unicode="&#x444;" 
d="M0 256v256h128v-256h-128zM512 256v256h128v-256h-128zM256 0v128h-128v128h128v256h-128v128h384v-128h-128v-256h128v-128h-128v-128h-128z" />
    <glyph glyph-name="uni0445" unicode="&#x445;" 
d="M0 0v128h128v-128h-128zM512 0v128h128v-128h-128zM128 128v128h128v-128h-128zM384 128v128h128v-128h-128zM256 256v128h128v-128h-128zM128 384v128h128v-128h-128zM384 384v128h128v-128h-128zM0 512v128h128v-128h-128zM512 512v128h128v-128h-128z" />
    <glyph glyph-name="uni0446" unicode="&#x446;" 
d="M512 -128v128h-512v640h128v-512h256v512h128v-512h128v-256h-128z" />
    <glyph glyph-name="uni0447" unicode="&#x447;" 
d="M0 384v256h128v-256h-128zM512 0v256h-384v128h384v256h128v-640h-128z" />
    <glyph glyph-name="uni0448" unicode="&#x448;" 
d="M0 0v640h128v-512h128v384h128v-384h128v512h128v-640h-640z" />
    <glyph glyph-name="uni0449" unicode="&#x449;" horiz-adv-x="896" 
d="M640 -128v128h-640v640h128v-512h128v384h128v-384h128v512h128v-512h128v-256h-128z" />
    <glyph glyph-name="uni044A" unicode="&#x44a;" horiz-adv-x="896" 
d="M640 128v256h128v-256h-128zM128 0v512h-128v128h256v-128h384v-128h-384v-256h384v-128h-512z" />
    <glyph glyph-name="uni044B" unicode="&#x44b;" horiz-adv-x="1024" 
d="M512 128v256h128v-256h-128zM0 0v640h128v-128h384v-128h-384v-256h384v-128h-512zM768 0v640h128v-640h-128z" />
    <glyph glyph-name="uni044C" unicode="&#x44c;" 
d="M512 128v256h128v-256h-128zM0 0v640h128v-128h384v-128h-384v-256h384v-128h-512z" />
    <glyph glyph-name="uni044D" unicode="&#x44d;" 
d="M128 0v128h384v-128h-384zM0 128v128h128v-128h-128zM0 384v128h128v-128h-128zM512 128v128h-256v128h256v128h128v-384h-128zM128 512v128h384v-128h-384z" />
    <glyph glyph-name="uni044E" unicode="&#x44e;" horiz-adv-x="896" 
d="M384 0v128h256v-128h-256zM640 128v384h128v-384h-128zM0 0v640h128v-256h128v128h128v-384h-128v128h-128v-256h-128zM384 512v128h256v-128h-256z" />
    <glyph glyph-name="uni044F" unicode="&#x44f;" 
d="M0 0v256h128v-256h-128zM0 384v128h128v-128h-128zM512 0v256h-384v128h384v128h-384v128h512v-640h-128z" />
    <glyph glyph-name="quoteleft" unicode="&#x2018;" horiz-adv-x="384" 
d="M0 512v256h128v-256h-128zM128 768v128h128v-128h-128z" />
    <glyph glyph-name="quoteright" unicode="&#x2019;" horiz-adv-x="384" 
d="M0 512v128h128v-128h-128zM128 640v256h128v-256h-128z" />
    <glyph glyph-name="quotedblleft" unicode="&#x201c;" horiz-adv-x="640" 
d="M0 512v256h128v-256h-128zM256 512v256h128v-256h-128zM128 768v128h128v-128h-128zM384 768v128h128v-128h-128z" />
    <glyph glyph-name="quotedblright" unicode="&#x201d;" horiz-adv-x="640" 
d="M0 512v128h128v-128h-128zM256 512v128h128v-128h-128zM128 640v256h128v-256h-128zM384 640v256h128v-256h-128z" />
  </font>
</defs>
</svg>
